#TITLE:Lovable Time;
#SUBTITLE:SDO China lv26 -[N]hok[Q] Simfile;
#ARTIST:Hiro;
#TITLETRANSLIT:;
#SUBTITLETRANSLIT:;
#ARTISTTRANSLIT:;
#CREDIT:[N]hok[Q];
#BANNER:bn.png;
#BACKGROUND:bg.png;
#LYRICSPATH:;
#CDTITLE:cd.png;
#MUSIC:Lovable Time.ogg;
#OFFSET:0.000;
#SAMPLESTART:49.180;
#SAMPLELENGTH:12.000;
#SELECTABLE:YES;
#DISPLAYBPM:122.000;
#BPMS:0.000=122.009,1.000=121.997,2.000=122.009,3.000=121.997,4.000=122.009,5.000=121.997,6.000=122.003,7.000=121.997,8.000=122.003,9.000=121.997,10.000=122.003,11.000=121.997,12.000=122.003,13.000=121.997,14.000=122.003,15.000=121.997,16.000=122.003,17.000=121.997,19.000=122.003,20.000=121.997,21.000=122.003,22.000=121.997,23.000=122.003,24.000=121.997,25.000=122.003,26.000=121.997,27.000=122.003,28.000=121.997,29.000=122.003,30.000=121.997,31.000=122.003,32.000=121.997,33.000=122.003,34.000=121.997,35.000=122.003,36.000=121.997,37.000=122.003,38.000=121.997,39.000=122.003,40.000=121.997,41.000=122.003,42.000=121.997,43.000=122.003,44.000=121.997,45.000=122.003,46.000=121.997,47.000=122.003,48.000=121.997,49.000=122.003,50.000=121.997,51.000=122.003,52.000=121.997,53.000=122.003,54.000=121.997,55.000=122.003,56.000=121.997,57.000=122.003,58.000=121.997,59.000=122.003,60.000=121.997,61.000=122.003,62.000=121.997,63.000=122.003,64.000=121.997,65.000=122.003,66.000=121.997,67.000=122.003,68.000=121.997,69.000=122.003,70.000=121.997,71.000=122.003,72.000=121.997,73.000=122.003,74.000=121.997,75.000=122.003,76.000=121.997,77.000=122.003,78.000=121.997,79.000=122.003,80.000=121.997,81.000=122.003,82.000=121.997,83.000=122.003,84.000=121.997,85.000=122.003,86.000=121.997,87.000=122.003,88.000=121.997,89.000=122.003,90.000=121.997,91.000=122.003,92.000=121.997,93.000=122.003,94.000=121.997,95.000=122.003,96.000=121.997,97.000=122.003,98.000=121.997,99.000=122.003,100.000=121.997,101.000=122.003,102.000=121.997,103.000=122.003,104.000=121.997,105.000=122.003,106.000=121.997,107.000=122.003,108.000=121.997,109.000=122.003,110.000=121.997,111.000=122.003,112.000=121.997,113.000=122.003,114.000=121.997,115.000=122.003,116.000=121.997,117.000=122.003,118.000=121.997,119.000=122.003,120.000=121.997,121.000=122.003,122.000=121.997,123.000=122.003,124.000=121.997,125.000=122.003,126.000=121.997,127.000=122.003,128.000=121.997,129.000=122.003,130.000=121.997,131.000=122.003,132.000=121.997,133.000=122.003,134.000=121.997,135.000=122.003,136.000=121.997,137.000=122.003,138.000=121.997,139.000=122.003,140.000=121.997,141.000=122.003,142.000=121.997,143.000=122.003,144.000=121.997,145.000=122.003,146.000=121.997,147.000=122.003,148.000=121.997,149.000=122.003,150.000=121.997,151.000=122.003,152.000=121.997,153.000=122.003,154.000=121.997,155.000=122.003,156.000=121.997,157.000=122.003,158.000=121.997,159.000=122.003,160.000=121.997,161.000=122.003,162.000=121.997,163.000=122.003,164.000=121.997,165.000=122.003,166.000=121.997,167.000=122.003,168.000=121.997,169.000=122.003,170.000=121.997,171.000=122.003,172.000=121.997,173.000=122.003,174.000=121.997,175.000=122.003,176.000=121.997,177.000=122.003,178.000=121.997,179.000=122.003,180.000=121.997,181.000=122.003,182.000=121.997,183.000=122.003,184.000=121.997,185.000=122.003,186.000=121.997,187.000=122.003,188.000=121.997,189.000=122.003,190.000=121.997,191.000=122.003,192.000=121.997,194.000=122.003,195.000=121.997,196.000=122.003,197.000=121.997,198.000=122.003,199.000=121.997,200.000=122.003,201.000=121.997,202.000=122.003,203.000=121.997,204.000=122.003,205.000=121.997,206.000=122.003,207.000=121.997,208.000=122.003,209.000=121.997,210.000=122.003,211.000=121.997,212.000=122.003,213.000=121.997,214.000=122.003,215.000=121.997,216.000=122.003,217.000=121.997,218.000=122.003,219.000=121.997,220.000=122.003,221.000=121.997,222.000=122.003,223.000=121.997,224.000=122.003,225.000=121.997,226.000=122.003,227.000=121.997,228.000=122.003,229.000=121.997,230.000=122.003,231.000=121.997,232.000=122.003,233.000=121.997,234.000=122.003,235.000=121.997,236.000=122.003,237.000=121.997,238.000=122.003,239.000=121.997,240.000=122.003,241.000=121.997,242.000=122.003,243.000=121.997,244.000=122.003,245.000=121.997,246.000=122.003,247.000=121.997,248.000=122.003,249.000=121.997,250.000=122.003,251.000=121.997,252.000=122.003,253.000=121.997,254.000=122.003,255.000=121.997,256.000=122.003,257.000=121.997,258.000=122.003,259.000=121.997;
#STOPS:;
#BGCHANGES:;
// cache tags:
#FIRSTBEAT:4.000;
#LASTBEAT:258.500;
#SONGFILENAME:Songs/SDO pack 4/Lovable Time/Lovable Time.sm;
#HASMUSIC:1;
#HASBANNER:1;
#MUSICLENGTH:127.868;
// end cache tags

//---------------dance-single - ----------------
#NOTES:
     dance-single:
     :
     Hard:
     26:
     1.000,1.000,1.000,0.422,1.000,831.000,219.000,54.000,0.000,154.000:
0000
0000
0000
0000
,
0101
0000
1010
0000
0011
0000
0100
0001
1000
0001
0010
0000
1100
0000
0011
0000
,
1010
0000
0001
0010
1000
0100
0010
0000
1000
0100
0000
0001
1010
0000
0101
0000
,
1010
0000
0101
0000
0110
0000
0010
1000
0001
0100
0010
0000
1100
0000
0011
0000
,
1010
0001
0100
1000
0101
0010
1000
0001
0100
0010
1000
0010
0101
0000
1010
0100
,
1012
0000
0110
0000
0110
0000
1000
0100
0010
1000
0100
0000
1010
0000
0010
0100
,
2013
0001
0100
0010
0100
0000
0010
0100
0010
0001
0100
0010
0001
0100
0010
0001
,
3120
0000
0101
0000
1001
0000
0100
0001
1000
0001
0130
0000
1010
0000
1001
0010
,
1000
0100
0010
0001
0010
0100
1000
0100
0001
0001
1000
1000
0010
0010
0100
0100
,
1012
0000
0110
0000
1010
0000
0103
0010
1000
0100
0010
0000
1001
0000
0101
0010
,
1001
0100
0010
0001
1010
0100
0010
0001
1000
0010
0100
0001
1010
0001
1100
0010
,
1001
0000
0110
0000
1010
0000
0100
0100
0001
0010
0100
0000
0011
0000
1010
0000
,
0101
0100
1010
0001
0100
0001
1010
0100
0001
0010
1000
1000
0001
0001
0100
0100
,
1012
0000
0110
0000
1010
0000
0100
0100
0010
1000
0010
0000
1100
0000
0110
0000
,
1213
0000
1001
0000
1010
0000
0001
1000
0010
1000
0001
0000
1010
0000
1001
0000
,
2311
0000
0000
0101
0000
0000
0110
0000
3100
1001
0000
0000
0110
1001
0000
0000
,
1010
0000
0101
0000
1010
0100
0000
0010
0101
0000
1010
0000
0001
0001
1000
1000
,
0101
1000
0101
0010
1100
0010
0001
0100
1000
0010
0001
0010
1100
0010
0001
0100
,
1001
0100
0011
0100
1000
0010
0101
1002
0010
1100
0100
0010
1010
0100
1013
0001
,
1010
0100
1001
0010
1000
0100
0010
0102
1000
0010
1000
0100
1003
0010
0100
0010
,
1001
0010
0100
0010
1000
0010
0100
1020
0001
0001
0130
0100
1010
0000
0001
0001
,
0110
0001
1000
0010
0101
0010
1000
0001
1000
0100
0001
0010
1100
0010
0101
0010
,
1001
0010
0101
1000
0001
0010
1100
0012
0100
1100
0010
0010
1010
0100
0113
1000
,
0101
1000
0001
0010
0001
0100
0010
2100
0001
0001
0100
0100
3001
0010
0100
0001
,
1000
0100
0010
0001
0010
0100
1000
0100
0001
0001
1000
1000
0010
0010
0100
0100
,
1011
0100
1010
0001
0110
1000
0010
0100
1000
0100
0010
0001
1010
0100
0110
0001
,
1010
0100
0011
0100
1000
0100
0001
0012
1100
0000
1100
0000
1100
1100
0003
1100
,
0211
0000
1010
0000
0001
0010
0000
0021
1001
0000
0001
0000
1030
0011
0000
1010
,
0311
0100
1010
0100
0001
0100
1000
0120
0001
0100
1030
0100
0001
0010
1000
1000
,
0101
0010
1010
0100
0110
0001
1000
0100
0010
1000
0100
0001
1010
0100
0110
0001
,
1100
0010
0101
0010
1000
0010
0100
0012
1010
0100
1010
0100
1010
1010
0103
1010
,
0001
0100
1010
0100
0101
1000
0100
0021
1100
1000
0101
0100
1031
0100
0001
0010
,
1101
0000
1110
0000
0111
1010
0000
0212
1000
0010
1313
0001
0111
2221
0001
0001
,
3332
0000
0000
0000
0100
0000
0000
0000
0010
0000
0000
0000
1000
1000
0100
0010
,
2103
0010
0001
0010
0100
0000
0000
0000
0001
0100
0010
0001
0100
0010
0001
0010
,
3100
0001
1000
0010
0100
0010
0001
0100
0010
0100
0001
1000
0010
0100
0010
1000
,
1002
0100
0010
0100
1000
0100
0010
0100
1000
0010
1000
0100
0010
0000
1100
0000
,
2113
0000
0101
0000
0110
0000
0001
0110
0001
0010
0100
0000
0011
0000
0101
0000
,
3102
0000
1010
0000
0110
0000
1000
0110
1000
0100
0010
0000
1010
0000
1100
0000
,
1213
0000
0000
0011
0000
0000
1010
0000
1000
0011
0000
0000
1010
1001
0000
0000
,
1312
0000
0110
0000
1000
0110
0000
0100
1010
1000
0100
0010
1000
1000
0010
0010
,
1013
0100
0010
0001
0010
0100
1000
0100
0010
0001
0010
0100
0001
1000
0100
0010
,
2100
0010
0001
0010
0100
0000
0000
0000
0100
0010
0001
0010
0100
0001
0010
0100
,
3001
0100
0010
1000
0001
0100
0001
1000
0010
0100
0001
1000
0010
0100
0001
1000
,
0001
1000
0010
0100
0010
0100
1000
0001
0100
0100
0010
0010
1100
0000
0001
0001
,
1120
0000
0101
0000
1001
0000
0100
0101
1000
0100
0001
0000
1100
0000
0101
0000
,
2131
0000
0101
0000
0010
0000
0100
0011
0100
0010
0001
0000
0101
0000
0010
0000
,
3112
0000
0000
1010
0000
0000
0110
0000
0100
1010
0000
0000
0110
0110
0000
0000
,
2103
0000
0101
0000
0011
0101
0100
0001
0011
0100
0101
0000
0011
0010
0101
0010
,
3121
0100
0001
1000
0001
0100
1000
0100
0001
0100
1000
0001
0100
0001
1000
0100
,
0231
1000
0011
0001
1010
0001
1000
0012
1000
0010
1000
1000
0010
0010
1003
1000
,
0301
0010
0100
1000
0010
0100
1000
0012
1000
0100
0010
0100
1003
0100
0010
0001
,
1000
0100
0010
0001
1000
0100
0010
0001
2010
0010
0100
0100
0011
0000
0010
0100
,
3100
0010
0001
0010
1000
0100
0010
0002
1000
0000
0013
0100
1000
0010
0100
0001
,
2100
0000
0001
0000
0100
0010
0000
0012
0100
0000
0100
0000
0010
0000
0103
0000
,
3120
0000
0001
0000
1000
0100
0000
1002
0100
1000
0100
0000
1003
0000
0001
0000
,
1030
1000
0010
0010
0001
0010
0100
2100
0001
0001
0010
0100
3010
0010
1000
1000
,
0112
0010
1100
0100
1000
0010
1000
0100
0010
1000
0010
0100
1000
0010
0100
1000
,
0213
0001
1000
0010
0001
1000
1000
0021
1000
0001
1000
0000
0001
1000
0031
0000
,
0301
1000
0010
0100
0001
0100
0010
1000
0001
0010
0100
1000
1000
0100
0010
0001
,
1000
0100
0001
0010
1000
0100
0001
0010
1000
1000
0010
0010
1100
0000
0001
0001
,
1010
0100
0010
0001
1000
0100
0010
0001
1200
0010
0001
0000
1000
0000
0001
0000
,
0321
0000
1000
0000
0001
0100
0000
2100
0001
0100
0001
0000
0100
0000
3001
0000
,
0231
0000
1000
0000
0001
0000
1000
1000
0001
0001
1000
0000
0001
0000
0010
0000
,
0302
0000
0000
0000
0000
0003
0000
0000
,
0000
0000
0000
0000
;
